erpel
Roy C. - More Sex & More SoulRoy C. - More Sex & More Soul The Glen and Joe Show - Lock Me OutThe Glen and Joe Show - Lock Me Out Larry & Alvin / Jackie Mittoo - Hokey Jokey / Black OnionLarry & Alvin / Jackie Mittoo - Hokey Jokey / Black Onion Various - The Weekend Starts HereVarious - The Weekend Starts Here Freddie Slack And His Orchestra , vocal by Ella Mae Morse, Johnny Mercer , with Paul Weston's Orchestra - 30th Anniversary Capitol RecordsFreddie Slack And His Orchestra , vocal by Ella Mae Morse, Johnny Mercer , with Paul Weston's Orchestra - 30th Anniversary Capitol Records Razni izvođači - Back To The Go (Compilation Tape)Razni izvođači - Back To The Go (Compilation Tape) Mimezine - Can't Get EnoughMimezine - Can't Get Enough Sean Ensign - Without YouSean Ensign - Without You
» » Heiner Stadler - Brains On Fire Vol. 1
Heiner Stadler - Brains On Fire Vol. 1 mp3 flac download
Title:

Heiner Stadler - Brains On Fire Vol. 1 mp3 flac download

Performer:
Album:
Brains On Fire Vol. 1
Country:
Released:
Genre:
MP3 archive size:
1907 mb
FLAC archive size:
1829 mb
Other formats:
ASF AU MP3 AIFF APE XM DMF
Rating:
4.9
Votes:
978

Brains On Fire Vol. 1. 2 versions. Jazz Alchemy - Six Pieces For Trumpet, Bass And Drums ‎(LP, Album).

Heiner Stadler is a unique and serious – so almost by definition, under-appreciated - contemporary American visionary. As composer and producer of extraordinary works collected on Jazz Alchemy, A Tribute to Monk and Bird, Retrospection and Brains On Fire, Stadler created mind-stretching music

Heiner Stadler, Brains On Fire (2CD) Жанр: Free Jazz, Free Bop, Avant-Garde Jazz Носитель: CD Страна-производитель диска: US Год издания: 2012 Издатель (лейбл): Labor Records Номер по каталогу: LAB 7069 Страна: Germany Аудиокодек: FLAC . lac) Тип рипа: tracks+. cue Битрейт аудио: lossless Продолжительность: 60:11 + 72:07 Источник (релизер): свой фирменный диск Наличие сканов. Three Problems" PERFORMER "Heiner Stadler" INDEX 01 00:00:00 FILE "03 - Heidi. wav" WAVE TRACK 03 AUDIO TITLE "Heidi" PERFORMER "Heiner Stadler" INDEX 01 00:00:00 FILE "04 - Bea's Flat. wav" WAVE TRACK 04 AUDIO TITLE "Bea's Flat" PERFORMER "Heiner Stadler" INDEX 01 00:00:00.

Bad Brains (also known as The Yellow Tape or Attitude: The ROIR Sessions) is the debut studio album recorded by American hardcore punk/reggae band Bad Brains. Recorded in 1981 and released on the cassette-only label ROIR on February 5, 1982, many fans refer to it as "The Yellow Tape" because of its yellow packaging, much in the way that the Beatles' self-titled record is often called "The White Album"

Personnel: Heiner Stadler: arranger; Thad Jones: cornet (1, 3-5), flugelhorn (6); George Adams: tenor saxophone, flute (6); George Lewis: trombone; Stanley Cowell: piano; Reggie Workman: bass; Lenny White: drums; Cecil Bridgewater: trumpet (2); Warren Smith: timpani (5, 6). Title: Tribute to Bird & Monk Year Released: 2011 Record Label: Labor Records. Heiner Stadler: Brains on Fire. Tribute to Bird and Monk by Raul d'Gama Rose. Tribute to Bird & Monk by Nic Jones. By Doug Collette June 23, 2019. Nexus Music Vol. By Jack Bowers June 22, 2019.

The suite itself, recorded in 1975 and nearly 40 minutes long, is for trumpet, bass, and drums.

Stadler - Brains On Fire. About Heiner Stadler. Stadler was founder of the Labor Records label, and also served as head of A&R, director of operations, and executive producer at Tomato Records, where he supervised the initial four-LP release of Philip Glass' landmark Einstein on the Beach in 1979. Stadler died from complications of pneumonia in Silver Spring, Maryland in February 2018; he was 75 years old. ~

Tracklist Hide Credits

A1 The Fugue # 2 - Take 1
Bass – Barre PhillipsDrums – Joe ChambersPiano – Don FriedmanRecorded By – Tommy NolaTenor Saxophone – Joe FarrellTrombone – Garnett BrownTrumpet – Jimmy Owens
13:44
A2 Heidi 10:40
B All Tones 22:41

Companies, etc.

  • Recorded At – Nola Recording Studios
  • Recorded At – O'Brien Studios

Credits

  • Artwork – Johann Feindt
  • Bass – Reggie Workman (tracks: A2, B)
  • Composed By, Producer, Liner Notes – Heiner Stadler
  • Drums – Lenny White (tracks: A2, B)
  • Liner Notes – Chris White
  • Piano – Heiner Stadler (tracks: A2, B)
  • Recorded By – Orville O'Brien (tracks: A2, B)
  • Tenor Saxophone, Flute – Tyrone Washington (tracks: A2, B)

Notes

A1 recorded 1966 at Nola Penthouse Sound Studio, NYC, A2 and B recorded July/September 1971 at O' Brien's Studio, Teaneck, NJ

Other versions

Category Artist Title (Format) Label Category Country Year
MHS 1780 Heiner Stadler Brains On Fire ‎(LP) Musical Heritage Society MHS 1780 US 1973